куми куми торрент скачать без регистрации и рейтинга бесплатно

Десятки вариантов, где скачать куми куми торрент на нашем сайте все без регистрации и абсолютно бесплатною
Незнали, где найти и скачать любую программу, игру или фильм? Теперь стало еще удобнее и быстрее с помосщю нашего торрент-поисковика.

Размер Название торрента Сиды Пиры
873 Мб Куми-Куми [01x01-05 из 08] (2011) DVDRip-AVC от New-Team 107 ↓ 3

Год выпуска: 2011
Выпущено: Россия / Новый ДИСК
Жанр: мультфильм, детский
Продолжительность серии: 5 х ~ 00:11:00
Язык: Русский
Режиссер: Владимир Пономарев
Роли озвучивали: Александр Власов, Алина Рин, Марьяна Спивак, Марк Томпсон
Описание: Куми-Куми — это причудливые острова с красочными ландшафтами, на которых обитают фантастические существа — племена Юми, Шуми и Джуми. Каждое племя считает своих соседей чудаками, поэтому они не ищут контактов друг с другом, хоть и говорят на одном «тарабарском» языке, интуитивно понятном каждому.
Герои сериала — Джуга, Юси и Шумадан — представители разных племён. Несмотря на разные характеры и сложные отношения между их племенами, они очень дружны. В каждой серии кто-то из друзей попадает в переделку, выпутываться из которой приходится всем вместе. Часто ситуация осложняется ещё и тем, что Джуга и Шумадан влюблены в Юси.



Серии: Рыбалка * Мусорная жаба * Солнечная энергия * Облачный край * Легенда
Качество видео: DVDRip-AVC [DVD5 R5]
Формат видео: MKV
Видео: 720x576@1024x576 (16:9), H264 2005 Кбит/сек 25,000 fps / Бит/(Пиксели*Кадры): 0.193
Аудио: Dolby Digital Audio Russian 192 kbps 2.0 / 48 kHz
Релиз от:
Словарь Куми-Куми

Аба - Я
Аларма - Внимание! Тревога!
Ащщщ - Круто! Хорошо!
Бадуга - Беда, опасность
Байпопо - Волшебство, необыкновенное явление
Би-бу-бип! - Машина, устройство
Бухан - Любовь, праздник
Гадым - Привет! Как дела?
Джемана - Супер! Отлично!
Дрюка - Крутая штуковина, полезная вещь
Кам-кам-кам - Пойдем со мной
Куми-Куми - Друзья
Лака-лака - Нравится! Замечательно!
Няма-няма - Вкуснотища!
Суно - Солнце
Сяма - Спасибо!
Уба - Ты
Углюк - Не понимаю
Хаба-хаба - Много и долго гулять
Хабарра - Воинственный клич: Хватай! Держи! Лови!

Внимание! Раздача ведётся путём добавления новых серий

Внимание! Раздача ведётся путём добавления новых серий; при каждом добавлении создаётся новый торрент-файл. Чтобы начать докачку новой серии, пользователям необходимо сделать следующее:
(1) остановить скачивание;
(2) удалить старый торрент-файл у себя из клиента (старые серии удалять не надо);
(3) скачать новый торрент-файл и запустить его у себя в клиенте вместо старого, при этом указать клиенту путь в старую папку куда и должно происходить скачивание новых серий.
Ваш клиент при этом должен произвести хеширование (проверку) старой папки (если он не производит проверку сам – помогите ему сделать это), и будет докачивать только те серии которых у вас ещё нет. Старые серии при этом не удаляются, а продолжают раздаваться!
Если вы уже удалили старые серии, то предотвратить повторную закачку старых серий можно, отжав галочку в соответствующих местах при запуске нового торрент-файла. Желательно старые серии не удалять как можно дольше, чтобы релизёр не столько продолжал раздавать старые серии, а смог сконцентрироваться на новых.

MediaInfo

General
Complete name : Kumi-Kumi.2011.O.DVDRip-AVC_[Youtracker]_dy_avproh1.mkv
Format : Matroska
Format version : Version 4 / Version 2
File size : 175 MiB
Duration : 11mn 6s
Overall bit rate : 2 199 Kbps
Encoded date : UTC 2013-03-12 17:51:15
Writing application : mkvmerge v6.1.0 ('Old Devil') built on Mar 2 2013 14:32:37
Writing library : libebml v1.3.0 + libmatroska v1.4.0
Video
ID : 1
Format : AVC
Format/Info : Advanced Video Codec
Format profile : High@L4.1
Format settings, CABAC : Yes
Format settings, ReFrames : 11 frames
Codec ID : V_MPEG4/ISO/AVC
Duration : 11mn 6s
Bit rate : 2 005 Kbps
Width : 720 pixels
Height : 576 pixels
Display aspect ratio : 16:9
Frame rate mode : Constant
Frame rate : 25.000 fps
Standard : PAL
Color space : YUV
Chroma subsampling : 4:2:0
Bit depth : 8 bits
Scan type : Progressive
Bits/(Pixel*Frame) : 0.193
Stream size : 156 MiB (89%)
Writing library : x264 core 119 r2106 07efeb4
Encoding settings : cabac=1 / ref=11 / deblock=1:-2:-1 / analyse=0x3:0x113 / me=umh / subme=9 / psy=1 / psy_rd=1.00:0.20 / mixed_ref=1 / me_range=32 / chroma_me=1 / trellis=1 / 8x8dct=1 / cqm=0 / deadzone=21,11 / fast_pskip=0 / chroma_qp_offset=-3 / threads=9 / sliced_threads=0 / nr=0 / decimate=0 / interlaced=0 / bluray_compat=0 / constrained_intra=0 / bframes=8 / b_pyramid=2 / b_adapt=2 / b_bias=0 / direct=3 / weightb=1 / open_gop=0 / weightp=2 / keyint=250 / keyint_min=25 / scenecut=40 / intra_refresh=0 / rc_lookahead=60 / rc=2pass / mbtree=1 / bitrate=2005 / ratetol=1.0 / qcomp=0.60 / qpmin=0 / qpmax=69 / qpstep=4 / cplxblur=20.0 / qblur=0.5 / ip_ratio=1.40 / aq=1:1.00
Language : Russian
Default : Yes
Forced : No
Audio
ID : 2
Format : AC-3
Format/Info : Audio Coding 3
Mode extension : CM (complete main)
Format settings, Endianness : Big
Codec ID : A_AC3
Duration : 11mn 6s
Bit rate mode : Constant
Bit rate : 192 Kbps
Channel(s) : 2 channels
Channel positions : Front: L R
Sampling rate : 48.0 KHz
Bit depth : 16 bits
Compression mode : Lossy
Stream size : 15.2 MiB (9%)
Language : Russian
Default : Yes
Forced : No

Скриншоты


1.5 Гб Куми-Куми [01x01-11 из 52] (2011) WEB-DLRip от New-Team 56 ↓ 4
874 Мб Куми-Куми [01x01-05 из 08] (2011) DVDRip от New-Team 40 ↓ 0
3.0 Гб Куми-Куми [01x01-05 из 52] (2011) DVD5 от New-Team | Лицензия 38 ↓ 1
9.0 Гб Куми-Куми / Qumi-Qumi / Сезоны: 1-2 / Серии: 1-11 из 52 (Владимир Пономарев) [2012-2013, комедия, детский, WEB-DL 1080p] 94 ↓ 21
1.6 Гб Куми-Куми / Qumi-Qumi / Сезоны: 1-2 / Серии: 1-11 из 52 (Владимир Пономарев) [2011-2013, мультфильм, комедия, детский, WEB-DLRip] 80 ↓ 14
1.7 Гб Куми-Куми / Qumi-Qumi / Сезон: 1 / Серии: 1-9 из 9 (Владимир Пономарёв)[2011, Анимация, детский, DVB] 62 ↓ 5
360 Мб Куми-Куми / Qumi-Qumi / Сезон: 1-2 / Серии: 10 из 52 (Владимир Пономарев) [2012-по настоящее время, комедия, детский, мультфильм, WEBRip] 29 ↓ 1
971 Мб Куми-Куми / Qumi-Qumi / Сезон: 1 / Серии: 1-9 из 9 (Владимир Пономарёв) [2012, Анимация, детский, HDRip] 20 ↓ 1
20 Мб И. Рудакова - Уроки бабушки Куми. Подарки к Новому году [1996, DjVu] 16 ↓ 0