уральские пельмени торрент скачать без регистрации и рейтинга бесплатно

Десятки вариантов, где скачать уральские пельмени торрент на нашем сайте все без регистрации и абсолютно бесплатною
Незнали, где найти и скачать любую программу, игру или фильм? Теперь стало еще удобнее и быстрее с помосщю нашего торрент-поисковика.

Размер Название торрента Сиды Пиры
745 Мб Уральские Пельмени. Елочка Беги. Часть 2 (Эфир 31.12.2013) [2013 г., Юмористическое шоу, WEBRip-AVC] 266 ↓ 3
Уральские Пельмени. Елочка Беги. Часть 2
Год выпуска: 2013
Страна: Россия, YBW Group, СТС
Жанр: Юмористическое шоу
Продолжительность: 00:46:54
Эфир: 31.12.2013
Участники: Дмитрий Брекоткин, Сергей Ершов, Сергей Исаев, Сергей Калугин, Сергей Минеев, Вячеслав Мясников, Сергей Нетиевский, Александр Попов, Андрей Рожков, Дмитрий Соколов, Максим Ярица, Юлия Михалкова
Описание: Мы, россияне, ждем Новый год всей страной, всем сердцем, всей печенью. В этот день мы должны забыть обиды и простить долги. Именно поэтому отдел ипотечного кредитования не празднует Новый год. В этот праздник мы все становимся немного детьми: мы все слушаем «старшего» и не хотим спать после 12. Это время чудес! Если вы верите в чудо, то оно обязательно дойдёт до квартиры и будет ночевать дома! Это время героев — как ещё можно назвать людей, которые работают 1-го января?! Это особенная ночь, когда китайский порох наводит в России шорох. В этот вечер дети, чтобы получить Джобса, учат стихи Пушкина! В это праздник мы встречаемся с самыми близкими людьми и превращаемся в самых необычных животных. И, наконец, в новом году только «Уральские пельмени» могут составить конкуренцию мандаринам за праздничным столом, тем более их не нужно чистить, чтобы получить удовольствие — надо всего лишь 31 декабря переключиться на СТС и посмотреть новое шоу Уральских Пельменей «Елочка, БЕГИ!».
Качество: WEBRip-AVC
Формат: MKV
Видео: 1024 x 576 (1.77:1), 25.00 fps, MPEG-4 AVC, ~2 030 kbps avg, 0.138 bit/pixel
Аудио: 48 kHz, AC3 Dolby Digital, 2/0 (L,R) ch, ~192.00 kbps avg
Автор: nnlabetik

Уральские пельмени
Сцены

Сцены
- Деды Морозы в КПЗ
- Ирония судьбы по-уральски
- корпоративный кризис в гос. компании
- Ирония судьбы по-уральски (продолжение)
- песня посвященная зрителям последнего ряда
- заяц - зимний царь зверей
- в больнице под Новый год пациент с аппендицитом
- Ирония судьбы по-уральски (продолжение)
- Кай провел 30 лет в царстве Снежной королевы, а Герды все не было
- китайские пирожки с предсказаниями
- желания

MediaInfo

MediaInfo
Общее
Уникальный идентификатор : 191943994940086125419872468026554851117 (0x906711999A4FAF8F971E087F537C1F2D)
Полное имя : C:\Uralskie pelmeni\Elochka begi 2013\Elochka.begi.chast_2. 2013.x264(AVC).mkv
Формат : Matroska
Версия формата : Version 4 / Version 2
Размер файла : 745 Мбайт
Продолжительность : 46 м.
Общий поток : 2221 Кбит/сек
Название фильма : Уральские пельмени. Елочка Беги / 2013 -=NN@LIFE=-
Дата кодирования : UTC 2014-01-02 16:44:39
Программа кодирования : mkvmerge v6.6.0 ('The Edge Of The In Between') built on Dec 1 2013 17:55:00
Библиотека кодирования : libebml v1.3.0 + libmatroska v1.4.1
Видео
Идентификатор : 1
Формат : AVC
Формат/Информация : Advanced Video Codec
Профиль формата : High@L4.1
Параметр CABAC формата : Да
Параметр ReFrames формата : 8 кадров
Идентификатор кодека : V_MPEG4/ISO/AVC
Продолжительность : 46 м.
Битрейт : 2028 Кбит/сек
Ширина : 1024 пикселя
Высота : 576 пикселей
Соотношение сторон : 16:9
Режим частоты кадров : Постоянный
Частота кадров : 25,000 кадров/сек
Цветовое пространство : YUV
Субдискретизация насыщенности : 4:2:0
Битовая глубина : 8 бит
Тип развёртки : Прогрессивная
Бит/(Пиксели*Кадры) : 0.138
Размер потока : 666 Мбайт (89%)
Заголовок : Rip by nnlabetik
Библиотека кодирования : x264 core 138 r2358 9e941d1
Настройки программы : cabac=1 / ref=8 / deblock=1:-2:-1 / analyse=0x3:0x113 / me=umh / subme=10 / psy=1 / psy_rd=1.00:0.00 / mixed_ref=1 / me_range=32 / chroma_me=1 / trellis=2 / 8x8dct=1 / cqm=1 / deadzone=21,11 / fast_pskip=1 / chroma_qp_offset=-2 / threads=6 / lookahead_threads=1 / sliced_threads=0 / nr=0 / decimate=1 / interlaced=0 / bluray_compat=0 / constrained_intra=0 / bframes=9 / b_pyramid=2 / b_adapt=2 / b_bias=0 / direct=3 / weightb=1 / open_gop=0 / weightp=2 / keyint=250 / keyint_min=25 / scenecut=40 / intra_refresh=0 / rc_lookahead=50 / rc=2pass / mbtree=0 / bitrate=2028 / ratetol=1.0 / qcomp=0.70 / qpmin=3 / qpmax=69 / qpstep=4 / cplxblur=20.0 / qblur=0.5 / vbv_maxrate=50000 / vbv_bufsize=62500 / nal_hrd=none / ip_ratio=1.40 / pb_ratio=1.30 / aq=1:1.00
Язык : Russian
Default : Да
Forced : Нет
Аудио
Идентификатор : 2
Формат : AC-3
Формат/Информация : Audio Coding 3
Расширение режима : CM (complete main)
Параметр Endianness формата : Big
Идентификатор кодека : A_AC3
Продолжительность : 46 м.
Вид битрейта : Постоянный
Битрейт : 192 Кбит/сек
Каналы : 2 канала
Расположение каналов : Front: L R
Частота : 44,1 КГц
Битовая глубина : 16 бит
Метод сжатия : С потерями
Размер потока : 64,4 Мбайт (9%)
Язык : Russian
Default : Да
Forced : Нет

Скриншоты

Скриншоты

Исходник

Исходник
Большое спасибо zhenya_hacker за раздачу http://rutracker.org/forum/viewtopic.php?t=4630042
40 Гб Уральские пельмени. Сборник концертов (38 концертов) (KVNforAll) [2009-2013 гг., Юмор, SATRip, IPTVRip, WEB-DLRip] 266 ↓ 192
745 Мб Уральские Пельмени. Елочка Беги. Часть 1 (Эфир 31.12.2013) [2013 г., Юмористическое шоу, WEBRip-AVC] 263 ↓ 3
1.0 Гб Уральские пельмени. Елочка Беги! [2013 г., Юмористическое шоу, SATRip] 249 ↓ 2
745 Мб Уральские Пельмени. Люди в белых зарплатах. Часть 2 (Эфир 01.11.2013) [2013 г., Юмористическое шоу, SATRip-AVC] 242 ↓ 1
743 Мб Уральские Пельмени. 20 лет в тесте. Часть 1 (Эфир 29.11.2013) [2013 г., Юмористическое шоу, SATRip-AVC] 225 ↓ 1
743 Мб Уральские Пельмени. Люди в белых зарплатах. Часть 1 (Эфир 18.10.2013) [2013 г., Юмористическое шоу, SATRip-AVC] 218 ↓ 0
744 Мб Уральские Пельмени. 20 лет в тесте. Часть 2 (Эфир 06.12.2013) [2013 г., Юмористическое шоу, SATRip-AVC] 194 ↓ 2
744 Мб Уральские Пельмени. На Гоа бобра не ищут! Часть 2 2013 (Эфир 07.10.2013) [2013 г., Юмористическое шоу, SATRip-AVC] 161 ↓ 2
2.7 Гб Уральские пельмени. Елочка, БЕГИ! [2013 г., Юмор, 1080p WEB-DL, KVNforAll] 143 ↓ 6